<?xml version="1.0" encoding="UTF-8" standalone="no"?>
<svg
   version="1.2"
   width="93.040459mm"
   height="10.216422mm"
   viewBox="0 0 9304.0456 1021.6423"
   preserveAspectRatio="xMidYMid"
   fill-rule="evenodd"
   stroke-width="28.222"
   stroke-linejoin="round"
   xml:space="preserve"
   id="svg42"
   sodipodi:docname="zob_logo.svg"
   inkscape:version="1.4.2 (f4327f4, 2025-05-13)"
   xmlns:inkscape="http://www.inkscape.org/namespaces/inkscape"
   xmlns:sodipodi="http://sodipodi.sourceforge.net/DTD/sodipodi-0.dtd"
   xmlns="http://www.w3.org/2000/svg"
   xmlns:svg="http://www.w3.org/2000/svg"
   xmlns:ooo="http://xml.openoffice.org/svg/export"><sodipodi:namedview
   id="namedview42"
   pagecolor="#505050"
   bordercolor="#eeeeee"
   borderopacity="1"
   inkscape:showpageshadow="0"
   inkscape:pageopacity="0"
   inkscape:pagecheckerboard="0"
   inkscape:deskcolor="#505050"
   inkscape:document-units="mm"
   inkscape:zoom="2"
   inkscape:cx="263.5"
   inkscape:cy="-63"
   inkscape:window-width="1920"
   inkscape:window-height="1010"
   inkscape:window-x="-6"
   inkscape:window-y="-6"
   inkscape:window-maximized="1"
   inkscape:current-layer="g46" />
 <defs
   class="ClipPathGroup"
   id="defs2">
  
  <clipPath
   id="presentation_clip_path_shrink"
   clipPathUnits="userSpaceOnUse">
   <rect
   x="10"
   y="1"
   width="10060"
   height="1777"
   id="rect2" />
  </clipPath>
 
   
  
    
   
      
      
     
  
 
     
    </defs>
 <defs
   id="defs19">
  <font
   id="EmbeddedFont_1"
   horiz-adv-x="2048"
   horiz-origin-x="0"
   horiz-origin-y="0"
   vert-origin-x="512"
   vert-origin-y="768"
   vert-adv-y="1024">
   <font-face
   font-family="Montserrat embedded"
   units-per-em="2048"
   font-weight="normal"
   font-style="normal"
   ascent="1984"
   descent="516"
   id="font-face2" />
   <missing-glyph
   horiz-adv-x="2048"
   d="M 0,0 L 2047,0 2047,2047 0,2047 0,0 Z"
   id="missing-glyph2" />
   <glyph
   unicode="u"
   horiz-adv-x="984"
   d="M 647,-10 C 556,-10 476,7 408,41 339,75 286,126 249,195 211,263 193,348 193,451 L 193,1075 338,1075 338,467 C 338,352 366,266 423,208 480,150 559,121 662,121 737,121 802,136 857,167 912,198 955,242 984,301 1013,360 1028,430 1028,512 L 1028,1075 1174,1075 1174,0 1034,0 1034,295 1057,242 C 1023,162 970,101 898,56 826,12 743,-10 647,-10 Z"
   id="glyph2" />
   <glyph
   unicode="t"
   horiz-adv-x="738"
   d="M 543,-10 C 442,-10 364,17 309,72 255,126 227,203 227,303 L 227,1313 373,1313 373,311 C 373,248 389,200 421,166 453,132 499,115 559,115 623,115 677,133 719,170 L 770,66 C 741,40 707,20 667,8 626,-4 585,-10 543,-10 Z M 35,954 L 35,1075 700,1075 700,954 35,954 Z"
   id="glyph3" />
   <glyph
   unicode="s"
   horiz-adv-x="886"
   d="M 492,-10 C 403,-10 319,2 240,28 160,53 98,85 53,123 L 119,238 C 162,205 218,176 287,153 355,129 427,117 502,117 604,117 678,133 723,165 768,197 791,240 791,293 791,332 778,364 753,386 727,409 694,426 653,437 612,449 567,459 516,467 466,475 415,485 366,496 316,507 270,523 229,544 188,565 155,594 130,631 105,668 92,717 92,778 92,837 109,890 141,936 174,982 222,1019 286,1046 349,1072 427,1085 518,1085 588,1085 657,1076 727,1058 797,1039 854,1015 899,985 L 836,868 C 788,901 737,925 682,939 627,953 573,961 518,961 421,961 350,944 304,910 258,877 236,834 236,782 236,741 248,709 273,686 299,663 332,645 374,632 415,619 461,608 511,600 561,592 611,582 660,570 710,559 756,543 798,523 839,503 873,475 898,439 923,403 936,356 936,297 936,234 919,180 884,134 849,88 798,53 732,28 666,2 586,-10 492,-10 Z"
   id="glyph4" />
   <glyph
   unicode="r"
   horiz-adv-x="543"
   d="M 203,0 L 203,1075 342,1075 342,782 328,834 C 358,915 408,978 479,1021 550,1064 638,1085 743,1085 L 743,944 C 738,944 733,944 727,945 722,946 716,946 711,946 597,946 509,912 444,843 380,774 348,676 348,549 L 348,0 203,0 Z"
   id="glyph5" />
   <glyph
   unicode="o"
   horiz-adv-x="1099"
   d="M 641,-10 C 536,-9 442,15 360,61 279,108 214,172 167,255 120,338 96,432 96,539 95,646 118,741 167,822 215,904 280,968 361,1015 443,1062 536,1085 641,1085 748,1085 842,1062 924,1015 1006,968 1070,903 1117,821 1164,739 1188,645 1188,539 1189,432 1166,338 1119,255 1072,172 1007,108 924,61 840,15 746,-9 641,-10 Z M 641,119 C 719,119 788,136 848,171 908,206 955,255 990,318 1025,382 1043,455 1044,539 1043,623 1025,697 990,760 955,823 908,871 848,906 788,941 719,958 641,958 566,958 498,941 438,906 378,871 330,823 295,760 259,697 241,623 240,539 241,455 259,382 295,318 330,255 378,205 437,170 497,134 565,117 641,119 Z"
   id="glyph6" />
   <glyph
   unicode="n"
   horiz-adv-x="994"
   d="M 203,0 L 203,1075 342,1075 342,780 319,836 C 354,913 408,975 483,1019 558,1063 648,1085 752,1085 839,1085 916,1069 982,1035 1048,1002 1100,951 1138,883 1175,814 1194,728 1194,625 L 1194,0 1049,0 1049,610 C 1049,724 1020,809 964,867 907,925 827,954 725,954 649,954 582,939 525,908 469,878 425,833 394,775 364,717 348,647 348,565 L 348,0 203,0 Z"
   id="glyph7" />
   <glyph
   unicode="m"
   horiz-adv-x="1781"
   d="M 203,0 L 203,1075 342,1075 342,784 319,836 C 352,913 405,975 478,1019 551,1063 638,1085 737,1085 842,1085 932,1059 1006,1007 1079,954 1127,875 1149,770 L 1092,793 C 1123,880 1179,951 1258,1005 1338,1058 1434,1085 1546,1085 1634,1085 1710,1069 1775,1035 1839,1002 1890,951 1926,883 1962,814 1980,728 1980,625 L 1980,0 1835,0 1835,610 C 1835,724 1808,809 1754,867 1700,925 1624,954 1526,954 1452,954 1388,939 1334,908 1280,878 1239,833 1209,775 1180,717 1165,647 1165,565 L 1165,0 1020,0 1020,610 C 1020,724 993,809 938,867 883,925 807,954 709,954 636,954 573,939 518,908 464,878 422,833 392,775 363,717 348,647 348,565 L 348,0 203,0 Z"
   id="glyph8" />
   <glyph
   unicode="l"
   horiz-adv-x="147"
   d="M 203,0 L 203,1520 348,1520 348,0 203,0 Z"
   id="glyph9" />
   <glyph
   unicode="i"
   horiz-adv-x="215"
   d="M 205,0 L 203,1075 348,1075 348,0 205,0 Z M 276,1313 C 246,1313 221,1323 201,1343 180,1364 170,1389 170,1417 170,1446 180,1470 201,1490 221,1510 246,1520 276,1520 306,1520 332,1510 352,1491 373,1472 383,1448 383,1419 383,1389 373,1364 353,1343 333,1323 308,1313 276,1313 Z"
   id="glyph10" />
   <glyph
   unicode="h"
   horiz-adv-x="994"
   d="M 203,0 L 203,1520 348,1520 348,780 319,836 C 354,913 408,975 483,1019 558,1063 648,1085 752,1085 839,1085 916,1069 982,1035 1048,1002 1100,951 1138,883 1175,814 1194,728 1194,625 L 1194,0 1049,0 1049,610 C 1049,724 1020,809 964,867 907,925 827,954 725,954 649,954 582,939 525,908 469,878 425,833 394,775 364,717 348,647 348,565 L 348,0 203,0 Z"
   id="glyph11" />
   <glyph
   unicode="f"
   horiz-adv-x="736"
   d="M 227,0 L 227,1210 C 227,1306 255,1383 311,1442 367,1501 448,1530 553,1530 594,1530 634,1524 672,1513 710,1503 742,1485 768,1462 L 719,1354 C 698,1371 674,1385 647,1394 620,1403 591,1407 559,1407 498,1407 451,1390 418,1356 385,1322 369,1271 369,1204 L 369,1040 373,973 373,0 227,0 Z M 35,954 L 35,1075 700,1075 700,954 35,954 Z"
   id="glyph12" />
   <glyph
   unicode="e"
   horiz-adv-x="1052"
   d="M 659,-10 C 547,-10 449,13 365,60 280,108 214,172 166,255 118,338 94,432 94,539 94,645 117,739 163,821 209,903 271,968 351,1015 431,1062 521,1085 621,1085 722,1085 811,1063 890,1017 968,971 1030,907 1075,824 1120,742 1143,646 1143,539 1143,532 1142,525 1142,517 1141,510 1141,502 1141,494 L 205,494 205,602 1063,602 1006,559 C 1006,637 989,706 955,767 922,828 877,875 819,909 762,943 696,961 621,961 547,961 481,943 422,909 363,875 317,827 285,766 252,705 236,634 236,555 L 236,532 C 236,451 254,379 290,316 326,254 376,206 441,171 506,136 580,119 664,119 729,119 790,130 847,154 904,177 952,212 993,260 L 1075,166 C 1027,109 968,65 896,35 824,5 745,-10 659,-10 Z"
   id="glyph13" />
   <glyph
   unicode="b"
   horiz-adv-x="1094"
   d="M 758,-10 C 664,-10 579,11 504,54 429,97 369,160 326,242 282,324 260,423 260,539 260,656 282,755 327,837 371,918 431,980 506,1022 581,1064 665,1085 758,1085 860,1085 952,1063 1033,1017 1114,971 1178,907 1225,825 1271,743 1294,648 1294,539 1294,431 1271,336 1225,253 1178,170 1114,106 1033,59 952,13 860,-10 758,-10 Z M 203,0 L 203,1520 348,1520 348,758 328,541 342,324 342,0 203,0 Z M 748,119 C 824,119 892,136 952,171 1012,206 1060,255 1096,318 1131,382 1149,455 1149,539 1149,623 1131,697 1096,760 1060,823 1012,871 952,906 892,941 824,958 748,958 671,958 602,941 542,906 481,871 433,823 398,760 364,697 346,623 346,539 346,455 364,382 398,318 433,255 481,206 542,171 602,136 671,119 748,119 Z"
   id="glyph14" />
   <glyph
   unicode="a"
   horiz-adv-x="907"
   d="M 877,0 L 877,238 870,276 870,674 C 870,765 845,836 794,885 742,934 666,958 565,958 496,958 429,947 367,924 304,900 251,870 207,831 L 141,940 C 196,986 261,1022 338,1048 414,1073 495,1085 580,1085 719,1085 826,1051 902,982 978,913 1016,808 1016,668 L 1016,0 877,0 Z M 506,-10 C 425,-10 355,3 296,30 237,56 191,93 160,140 128,187 113,242 113,303 113,359 126,410 153,456 179,501 223,538 284,566 344,594 426,608 528,608 L 899,608 899,500 532,500 C 429,500 357,481 316,444 276,408 256,362 256,307 256,246 280,197 328,160 375,123 442,104 528,104 610,104 681,123 740,161 800,198 843,253 870,324 L 903,223 C 876,152 828,96 761,53 693,11 608,-10 506,-10 Z"
   id="glyph15" />
   <glyph
   unicode="Z"
   horiz-adv-x="1179"
   d="M 92,0 L 92,104 1087,1360 1104,1303 107,1303 107,1434 1243,1434 1243,1329 250,74 231,131 1268,131 1268,0 92,0 Z"
   id="glyph16" />
   <glyph
   unicode="O"
   horiz-adv-x="1509"
   d="M 858,-12 C 752,-12 652,6 560,42 468,78 388,129 321,196 253,262 200,339 163,428 125,517 107,613 107,717 107,821 125,917 163,1006 200,1094 253,1171 322,1237 390,1303 469,1354 560,1391 651,1427 750,1446 858,1446 967,1446 1067,1428 1158,1392 1249,1355 1328,1305 1397,1239 1465,1174 1518,1096 1555,1008 1593,919 1612,822 1612,717 1612,612 1593,515 1555,426 1518,337 1465,260 1397,195 1328,129 1249,78 1158,42 1067,6 967,-12 858,-12 Z M 858,121 C 945,122 1026,138 1099,167 1172,196 1235,238 1289,292 1343,346 1385,409 1416,480 1447,552 1462,631 1462,717 1461,803 1446,882 1416,953 1387,1025 1345,1088 1290,1142 1236,1196 1172,1237 1099,1267 1026,1296 945,1311 858,1313 773,1311 694,1296 621,1267 547,1237 483,1196 428,1142 373,1088 331,1025 301,953 271,882 256,803 256,717 256,632 271,554 301,481 331,409 373,346 428,292 483,238 547,196 621,167 694,138 773,122 858,121 Z"
   id="glyph17" />
   <glyph
   unicode="B"
   horiz-adv-x="1202"
   d="M 233,0 L 233,1434 852,1434 C 1012,1434 1136,1402 1224,1337 1312,1273 1356,1182 1356,1065 1356,987 1338,922 1302,868 1265,815 1216,775 1154,748 1092,720 1024,707 950,707 L 985,756 C 1077,756 1155,742 1222,714 1288,686 1339,644 1376,589 1413,534 1432,465 1432,383 1432,261 1387,167 1297,100 1208,33 1073,0 893,0 L 233,0 Z M 385,125 L 891,125 C 1016,125 1113,146 1180,189 1247,232 1280,301 1280,395 1280,488 1247,556 1180,599 1113,642 1016,664 891,664 L 369,664 369,788 842,788 C 956,788 1046,810 1109,854 1172,898 1204,963 1204,1049 1204,1136 1172,1201 1109,1244 1046,1287 956,1309 842,1309 L 385,1309 385,125 Z"
   id="glyph18" />
   <glyph
   unicode=" "
   horiz-adv-x="529"
   id="glyph19" />
  </font>
 </defs>
 <defs
   id="defs22">
  <font
   id="EmbeddedFont_2"
   horiz-adv-x="2048"
   horiz-origin-x="0"
   horiz-origin-y="0"
   vert-origin-x="512"
   vert-origin-y="768"
   vert-adv-y="1024">
   <font-face
   font-family="Montserrat embedded"
   units-per-em="2048"
   font-weight="bold"
   font-style="normal"
   ascent="1984"
   descent="516"
   id="font-face19" />
   <missing-glyph
   horiz-adv-x="2048"
   d="M 0,0 L 2047,0 2047,2047 0,2047 0,0 Z"
   id="missing-glyph19" />
   <glyph
   unicode="Z"
   horiz-adv-x="1257"
   d="M 78,0 L 78,215 965,1284 1006,1163 94,1163 94,1434 1300,1434 1300,1219 416,150 375,270 1329,270 1331,0 78,0 Z"
   id="glyph20" />
   <glyph
   unicode="O"
   horiz-adv-x="1573"
   d="M 862,-23 C 752,-23 648,-4 552,32 456,68 372,119 302,186 232,253 178,332 140,423 103,514 83,612 82,717 82,823 101,921 140,1011 179,1100 234,1179 304,1246 374,1314 457,1366 553,1403 649,1440 752,1457 862,1456 977,1457 1082,1440 1177,1403 1271,1366 1354,1314 1424,1247 1495,1180 1549,1102 1588,1013 1627,923 1646,825 1645,717 1646,610 1627,512 1588,421 1549,330 1495,252 1424,185 1354,119 1271,68 1177,31 1082,-6 977,-24 862,-23 Z M 862,256 C 928,257 988,269 1042,291 1097,313 1144,344 1185,385 1225,426 1256,474 1279,530 1302,586 1313,649 1315,717 1313,785 1302,847 1279,903 1256,959 1225,1008 1185,1049 1144,1090 1097,1121 1042,1144 988,1166 928,1178 862,1178 799,1176 741,1165 686,1143 631,1121 584,1090 544,1049 503,1008 472,959 450,904 427,849 415,786 414,717 415,650 427,588 450,531 472,475 503,426 544,385 584,344 631,312 685,290 739,267 798,256 862,256 Z"
   id="glyph21" />
   <glyph
   unicode="B"
   horiz-adv-x="1318"
   d="M 170,0 L 170,1434 870,1434 C 1051,1434 1186,1399 1277,1331 1368,1263 1413,1173 1413,1061 1413,986 1395,921 1358,865 1321,810 1270,767 1206,737 1142,707 1068,692 985,692 L 1024,776 C 1114,776 1194,762 1264,732 1333,703 1388,659 1426,602 1465,545 1485,474 1485,391 1485,268 1436,172 1339,103 1242,34 1100,0 911,0 L 170,0 Z M 500,250 L 887,250 C 973,250 1038,264 1082,292 1127,320 1149,365 1149,426 1149,486 1127,531 1082,560 1038,589 973,604 887,604 L 475,604 475,846 829,846 C 910,846 972,860 1015,888 1058,916 1079,958 1079,1016 1079,1072 1058,1114 1015,1142 972,1170 910,1184 829,1184 L 500,1184 500,250 Z"
   id="glyph22" />
  </font>
</defs>
</svg>
